Results 1 to 2 of 2

Thread: [UL|NF|FF] The Maze Runner (2014) 4K 2160p DD5 1 x265 (3.95GB)

  1. #1

    [UL|NF|FF] The Maze Runner (2014) 4K 2160p DD5 1 x265 (3.95GB)








    Code:
    http://www.imdb.com/title/tt1790864/


    Code:
    Plot:
    Thomas is deposited in a community of boys after his memory is erased, soon learning they're all trapped in a maze that will require him to join forces with fellow "runners" for a shot at escape.
    
    
    Source: IAMABLE (15.8 GiB)
    Encoder: Phun Psyz
    Uploader: HDC0OL
    
    
    Format : Matroska
    Format version : Version 4 / Version 2
    File size : 3.95 GiB
    Duration : 1 h 53 min
    Overall bit rate : 4 982 kb/s
    Writing application : mkvmerge v9.3.1 ('Mask Machine') 64bit
    Writing library : libebml v1.3.4 + libmatroska v1.4.5 / Lavf57.71.100
    
    
    Video
    ID : 1
    Format : HEVC
    Format/Info : High Efficiency Video Coding
    Format profile : Main@L5@Main
    Codec ID : V_MPEGH/ISO/HEVC
    Duration : 1 h 53 min
    Bit rate : 4 344 kb/s
    Width : 3 840 pixels
    Height : 1 596 pixels
    Display aspect ratio : 2.40:1
    Frame rate mode : Constant
    Frame rate : 23.976 (24000/1001) FPS
    Color space : YUV
    Chroma subsampling : 4:2:0
    Bit depth : 8 bits
    Bits/(Pixel*Frame) : 0.030
    Stream size : 3.44 GiB (87%)
    Writing library : x265 2.1:[Windows][GCC 5.4.0][64 bit] 8bit
    Default : Yes
    Forced : No
    
    
    Audio
    ID : 24
    Format : AC-3
    Format/Info : Audio Coding 3
    Format settings, Endianness : Big
    Codec ID : A_AC3
    Duration : 1 h 53 min
    Bit rate mode : Constant
    Bit rate : 320 kb/s
    Channel(s) : 6 channels
    Channel positions : Front: L C R, Side: L R, LFE
    Sampling rate : 48.0 kHz
    Frame rate : 31.250 FPS (1536 SPF)
    Bit depth : 16 bits
    Compression mode : Lossy
    Stream size : 260 MiB (6%)
    Service kind : Complete Main
    Default : Yes
    Forced : No
    
    
    Text #1
    ID : 2
    Format : ASS
    Codec ID : S_TEXT/ASS
    Codec ID/Info : Advanced Sub Station Alpha
    Duration : 1 h 45 min
    Bit rate : 93 b/s
    Count of elements : 1529
    Compression mode : Lossless
    Stream size : 72.0 KiB (0%)
    Language : English
    Default : No
    Forced : No
    
    
    Text #2
    ID : 3
    Format : PGS
    Muxing mode : zlib
    Codec ID : S_HDMV/PGS
    Codec ID/Info : Picture based subtitle format used on BDs/HD-DVDs
    Duration : 1 h 45 min
    Bit rate : 10.6 kb/s
    Count of elements : 3058
    Stream size : 7.98 MiB (0%)
    Language : English
    Default : No
    Forced : No
    
    
    Text #3
    ID : 4
    Format : PGS
    Muxing mode : zlib
    Codec ID : S_HDMV/PGS
    Codec ID/Info : Picture based subtitle format used on BDs/HD-DVDs
    Duration : 1 h 48 min
    Bit rate : 31.5 kb/s
    Count of elements : 5108
    Stream size : 24.4 MiB (1%)
    Language : English
    Default : No
    Forced : No
    
    
    Text #4
    ID : 5
    Format : PGS
    Muxing mode : zlib
    Codec ID : S_HDMV/PGS
    Codec ID/Info : Picture based subtitle format used on BDs/HD-DVDs
    Duration : 1 h 51 min
    Bit rate : 6 467 b/s
    Count of elements : 2220
    Stream size : 5.17 MiB (0%)
    Language : English
    Default : No
    Forced : No
    
    
    Text #5
    ID : 6
    Format : PGS
    Muxing mode : zlib
    Codec ID : S_HDMV/PGS
    Codec ID/Info : Picture based subtitle format used on BDs/HD-DVDs
    Duration : 1 h 53 min
    Bit rate : 24.8 kb/s
    Count of elements : 4944
    Stream size : 20.1 MiB (0%)
    Language : French
    Default : No
    Forced : No
    
    
    Text #6
    ID : 7
    Format : PGS
    Muxing mode : zlib
    Codec ID : S_HDMV/PGS
    Codec ID/Info : Picture based subtitle format used on BDs/HD-DVDs
    Duration : 1 h 52 min
    Bit rate : 7 347 b/s
    Count of elements : 2374
    Stream size : 5.90 MiB (0%)
    Language : French
    Default : No
    Forced : No
    
    
    Text #7
    ID : 8
    Format : PGS
    Muxing mode : zlib
    Codec ID : S_HDMV/PGS
    Codec ID/Info : Picture based subtitle format used on BDs/HD-DVDs
    Duration : 1 h 53 min
    Bit rate : 24.4 kb/s
    Count of elements : 4946
    Stream size : 19.8 MiB (0%)
    Language : Spanish
    Default : No
    Forced : No
    
    
    Text #8
    ID : 9
    Format : PGS
    Muxing mode : zlib
    Codec ID : S_HDMV/PGS
    Codec ID/Info : Picture based subtitle format used on BDs/HD-DVDs
    Duration : 1 h 52 min
    Bit rate : 6 970 b/s
    Count of elements : 2410
    Stream size : 5.60 MiB (0%)
    Language : Danish
    Default : No
    Forced : No
    
    
    Text #9
    ID : 10
    Format : PGS
    Muxing mode : zlib
    Codec ID : S_HDMV/PGS
    Codec ID/Info : Picture based subtitle format used on BDs/HD-DVDs
    Duration : 1 h 53 min
    Bit rate : 22.9 kb/s
    Count of elements : 4948
    Stream size : 18.6 MiB (0%)
    Language : Italian
    Default : No
    Forced : No
    
    
    Text #10
    ID : 11
    Format : PGS
    Muxing mode : zlib
    Codec ID : S_HDMV/PGS
    Codec ID/Info : Picture based subtitle format used on BDs/HD-DVDs
    Duration : 1 h 52 min
    Bit rate : 7 296 b/s
    Count of elements : 2404
    Stream size : 5.86 MiB (0%)
    Language : Italian
    Default : No
    Forced : No
    
    
    Text #11
    ID : 12
    Format : PGS
    Muxing mode : zlib
    Codec ID : S_HDMV/PGS
    Codec ID/Info : Picture based subtitle format used on BDs/HD-DVDs
    Duration : 1 h 53 min
    Bit rate : 25.6 kb/s
    Count of elements : 4948
    Stream size : 20.7 MiB (1%)
    Language : German
    Default : No
    Forced : No
    
    
    Text #12
    ID : 13
    Format : PGS
    Muxing mode : zlib
    Codec ID : S_HDMV/PGS
    Codec ID/Info : Picture based subtitle format used on BDs/HD-DVDs
    Duration : 1 h 52 min
    Bit rate : 6 058 b/s
    Count of elements : 2028
    Stream size : 4.87 MiB (0%)
    Language : German
    Default : No
    Forced : No
    
    
    Text #13
    ID : 14
    Format : PGS
    Muxing mode : zlib
    Codec ID : S_HDMV/PGS
    Codec ID/Info : Picture based subtitle format used on BDs/HD-DVDs
    Duration : 1 h 53 min
    Bit rate : 22.9 kb/s
    Count of elements : 4940
    Stream size : 18.6 MiB (0%)
    Language : Dutch
    Default : No
    Forced : No
    
    
    Text #14
    ID : 15
    Format : PGS
    Muxing mode : zlib
    Codec ID : S_HDMV/PGS
    Codec ID/Info : Picture based subtitle format used on BDs/HD-DVDs
    Duration : 1 h 52 min
    Bit rate : 6 765 b/s
    Count of elements : 2404
    Stream size : 5.43 MiB (0%)
    Language : Dutch
    Default : No
    Forced : No
    
    
    Text #15
    ID : 16
    Format : PGS
    Muxing mode : zlib
    Codec ID : S_HDMV/PGS
    Codec ID/Info : Picture based subtitle format used on BDs/HD-DVDs
    Duration : 1 h 53 min
    Bit rate : 24.0 kb/s
    Count of elements : 4946
    Stream size : 19.5 MiB (0%)
    Language : Swedish
    Default : No
    Forced : No
    
    
    Text #16
    ID : 17
    Format : PGS
    Muxing mode : zlib
    Codec ID : S_HDMV/PGS
    Codec ID/Info : Picture based subtitle format used on BDs/HD-DVDs
    Duration : 1 h 52 min
    Bit rate : 7 055 b/s
    Count of elements : 2404
    Stream size : 5.67 MiB (0%)
    Language : Swedish
    Default : No
    Forced : No
    
    
    Text #17
    ID : 18
    Format : PGS
    Muxing mode : zlib
    Codec ID : S_HDMV/PGS
    Codec ID/Info : Picture based subtitle format used on BDs/HD-DVDs
    Duration : 1 h 53 min
    Bit rate : 24.2 kb/s
    Count of elements : 4946
    Stream size : 19.6 MiB (0%)
    Language : Norwegian
    Default : No
    Forced : No
    
    
    Text #18
    ID : 19
    Format : PGS
    Muxing mode : zlib
    Codec ID : S_HDMV/PGS
    Codec ID/Info : Picture based subtitle format used on BDs/HD-DVDs
    Duration : 1 h 52 min
    Bit rate : 6 691 b/s
    Count of elements : 1970
    Stream size : 5.38 MiB (0%)
    Language : Norwegian
    Default : No
    Forced : No
    
    
    Text #19
    ID : 20
    Format : PGS
    Muxing mode : zlib
    Codec ID : S_HDMV/PGS
    Codec ID/Info : Picture based subtitle format used on BDs/HD-DVDs
    Duration : 1 h 52 min
    Bit rate : 6 289 b/s
    Count of elements : 2402
    Stream size : 5.05 MiB (0%)
    Language : Danish
    Default : No
    Forced : No
    
    
    Text #20
    ID : 21
    Format : PGS
    Muxing mode : zlib
    Codec ID : S_HDMV/PGS
    Codec ID/Info : Picture based subtitle format used on BDs/HD-DVDs
    Duration : 1 h 53 min
    Bit rate : 21.5 kb/s
    Count of elements : 4944
    Stream size : 17.4 MiB (0%)
    Language : Finnish
    Default : No
    Forced : No
    
    
    Text #21
    ID : 22
    Format : PGS
    Muxing mode : zlib
    Codec ID : S_HDMV/PGS
    Codec ID/Info : Picture based subtitle format used on BDs/HD-DVDs
    Duration : 1 h 52 min
    Bit rate : 6 012 b/s
    Count of elements : 2104
    Stream size : 4.82 MiB (0%)
    Language : Finnish
    Default : No
    Forced : No
    
    
    Text #22
    ID : 23
    Format : PGS
    Muxing mode : zlib
    Codec ID : S_HDMV/PGS
    Codec ID/Info : Picture based subtitle format used on BDs/HD-DVDs
    Duration : 1 h 53 min
    Bit rate : 17.1 kb/s
    Count of elements : 3288
    Stream size : 13.9 MiB (0%)
    Language : Japanese
    Default : No
    Forced : No
    
    
    Text #23
    ID : 25
    Format : ASS
    Codec ID : S_TEXT/ASS
    Codec ID/Info : Advanced Sub Station Alpha
    Duration : 1 h 44 min
    Bit rate : 78 b/s
    Count of elements : 1260
    Compression mode : Lossless
    Stream size : 60.4 KiB (0%)
    Language : English
    Default : No
    Forced : No







    Code:
    https://www.keeplinks.co/p27/5a59144ca7008







  2. #2
    many thanks

Tags for this Thread

Posting Permissions

  • You may not post new threads
  • You may not post replies
  • You may not post attachments
  • You may not edit your posts
  •  
Website Developed By Salmaan