Code:
http://www.imdb.com/title/tt8688814/

Code:
Plot:
Two human princes who forge an unlikely bond with the elfin assassin sent to kill them, embarking on an epic quest to bring peace to their warring lands.

    Video
    ID : 1
    Format : AVC
    Format/Info : Advanced Video Codec
    Format profile : Main@L4
    Format settings : CABAC / 3 Ref Frames
    Format settings, CABAC : Yes
    Format settings, ReFrames : 3 frames
    Codec ID : V_MPEG4/ISO/AVC
    Duration : 26 min 50 s
    Bit rate mode : Variable
    Bit rate : 4 220 kb/s
    Maximum bit rate : 6 330 kb/s
    Width : 1 920 pixels
    Height : 1 080 pixels
    Display aspect ratio : 16:9
    Frame rate mode : Constant
    Frame rate : 23.976 (24000/1001) FPS
    Color space : YUV
    Chroma subsampling : 4:2:0
    Bit depth : 8 bits
    Scan type : Progressive
    Bits/(Pixel*Frame) : 0.085
    Stream size : 777 MiB (86%)
    Writing library : x264 core 148 r2715 7e75228
    Encoding settings : cabac=1 / ref=3 / deblock=1:0:0 / analyse=0x1:0x111 / me=umh / subme=10 / psy=1 / psy_rd=1.00:0.00 / mixed_ref=1 / me_range=24 / chroma_me=1 / trellis=2 / 8x8dct=0 / cqm=0 / deadzone=21,11 / fast_pskip=1 / chroma_qp_offset=-2 / threads=8 / lookahead_threads=1 / sliced_threads=0 / nr=0 / decimate=1 / interlaced=0 / bluray_compat=0 / stitchable=1 / constrained_intra=0 / bframes=2 / b_pyramid=0 / b_adapt=2 / b_bias=0 / direct=3 / weightb=1 / open_gop=0 / weightp=2 / keyint=48 / keyint_min=25 / scenecut=0 / intra_refresh=0 / rc_lookahead=48 / rc=2pass / mbtree=1 / bitrate=4220 / ratetol=1.0 / qcomp=0.50 / qpmin=6 / qpmax=51 / qpstep=4 / cplxblur=20.0 / qblur=0.5 / vbv_maxrate=6330 / vbv_bufsize=8440 / nal_hrd=vbr / filler=0 / ip_ratio=1.40 / aq=1:1.00
    Default : Yes
    Forced : No

    Audio
    ID : 2
    Format : E-AC-3
    Format/Info : Enhanced Audio Coding 3
    Codec ID : A_EAC3
    Duration : 26 min 50 s
    Bit rate mode : Constant
    Bit rate : 640 kb/s
    Channel(s) : 6 channels
    Channel positions : Front: L C R, Side: L R, LFE
    Sampling rate : 48.0 kHz
    Frame rate : 187.500 FPS (256 SPF)
    Compression mode : Lossy
    Stream size : 123 MiB (14%)
    Title : English
    Language : English
    Service kind : Complete Main
    Default : Yes
    Forced : No

    Text #1
    ID : 3
    Format : UTF-8
    Codec ID : S_TEXT/UTF8
    Codec ID/Info : UTF-8 Plain Text
    Duration : 24 min 30 s
    Bit rate : 65 b/s
    Count of elements : 359
    Stream size : 11.8 KiB (0%)
    Title : English [SDH]
    Language : English
    Default : No
    Forced : No

    Text #2
    ID : 4
    Format : UTF-8
    Codec ID : S_TEXT/UTF8
    Codec ID/Info : UTF-8 Plain Text
    Duration : 25 min 24 s
    Bit rate : 53 b/s
    Count of elements : 307
    Stream size : 10.00 KiB (0%)
    Title : Castilian [Full]
    Language : Spanish
    Default : No
    Forced : No

    Text #3
    ID : 5
    Format : UTF-8
    Codec ID : S_TEXT/UTF8
    Codec ID/Info : UTF-8 Plain Text
    Duration : 25 min 24 s
    Bit rate : 48 b/s
    Count of elements : 292
    Stream size : 8.98 KiB (0%)
    Title : Spanish [Full]
    Language : Spanish
    Default : No
    Forced : No

    Text #4
    ID : 6
    Format : UTF-8
    Codec ID : S_TEXT/UTF8
    Codec ID/Info : UTF-8 Plain Text
    Duration : 25 min 25 s
    Bit rate : 51 b/s
    Count of elements : 297
    Stream size : 9.66 KiB (0%)
    Title : French [Full]
    Language : French
    Default : No
    Forced : No

    Text #5
    ID : 7
    Format : UTF-8
    Codec ID : S_TEXT/UTF8
    Codec ID/Info : UTF-8 Plain Text
    Duration : 24 min 45 s
    Bit rate : 52 b/s
    Count of elements : 312
    Stream size : 9.57 KiB (0%)
    Title : German [Full]
    Language : German
    Default : No
    Forced : No

    Text #6
    ID : 8
    Format : UTF-8
    Codec ID : S_TEXT/UTF8
    Codec ID/Info : UTF-8 Plain Text
    Duration : 25 min 24 s
    Bit rate : 60 b/s
    Count of elements : 296
    Stream size : 11.3 KiB (0%)
    Title : Italian [Full]
    Language : Italian
    Default : No
    Forced : No

    Text #7
    ID : 9
    Format : UTF-8
    Codec ID : S_TEXT/UTF8
    Codec ID/Info : UTF-8 Plain Text
    Duration : 25 min 24 s
    Bit rate : 54 b/s
    Count of elements : 296
    Stream size : 10.2 KiB (0%)
    Title : Portuguese [Full]
    Language : Portuguese
    Default : No
    Forced : No

    Text #8
    ID : 10
    Format : UTF-8
    Codec ID : S_TEXT/UTF8
    Codec ID/Info : UTF-8 Plain Text
    Duration : 25 min 25 s
    Bit rate : 49 b/s
    Count of elements : 291
    Stream size : 9.21 KiB (0%)
    Title : Brazilian Portuguese [Full]
    Language : Portuguese
    Default : No
    Forced : No

    Text #9
    ID : 11
    Format : UTF-8
    Codec ID : S_TEXT/UTF8
    Codec ID/Info : UTF-8 Plain Text
    Duration : 25 min 24 s
    Bit rate : 46 b/s
    Count of elements : 295
    Stream size : 8.57 KiB (0%)
    Title : Polish [Full]
    Language : Polish
    Default : No
    Forced : No

    Text #10
    ID : 12
    Format : UTF-8
    Codec ID : S_TEXT/UTF8
    Codec ID/Info : UTF-8 Plain Text
    Duration : 25 min 24 s
    Bit rate : 60 b/s
    Count of elements : 308
    Stream size : 11.2 KiB (0%)
    Title : Turkish [Full]
    Language : Turkish
    Default : No
    Forced : No

    Text #11
    ID : 13
    Format : UTF-8
    Codec ID : S_TEXT/UTF8
    Codec ID/Info : UTF-8 Plain Text
    Duration : 25 min 24 s
    Bit rate : 51 b/s
    Count of elements : 281
    Stream size : 9.52 KiB (0%)
    Title : Swedish [Full]
    Language : Swedish
    Default : No
    Forced : No

    Text #12
    ID : 14
    Format : UTF-8
    Codec ID : S_TEXT/UTF8
    Codec ID/Info : UTF-8 Plain Text
    Duration : 25 min 24 s
    Bit rate : 52 b/s
    Count of elements : 301
    Stream size : 9.69 KiB (0%)
    Title : Danish [Full]
    Language : Danish
    Default : No
    Forced : No

    Text #13
    ID : 15
    Format : UTF-8
    Codec ID : S_TEXT/UTF8
    Codec ID/Info : UTF-8 Plain Text
    Duration : 25 min 24 s
    Bit rate : 50 b/s
    Count of elements : 245
    Stream size : 9.46 KiB (0%)
    Title : Finnish [Full]
    Language : Finnish
    Default : No
    Forced : No

    Text #14
    ID : 16
    Format : UTF-8
    Codec ID : S_TEXT/UTF8
    Codec ID/Info : UTF-8 Plain Text
    Duration : 25 min 25 s
    Bit rate : 43 b/s
    Count of elements : 305
    Stream size : 8.04 KiB (0%)
    Title : Dutch [Full]
    Language : Dutch
    Default : No
    Forced : No

    Text #15
    ID : 17
    Format : UTF-8
    Codec ID : S_TEXT/UTF8
    Codec ID/Info : UTF-8 Plain Text
    Duration : 25 min 24 s
    Bit rate : 53 b/s
    Count of elements : 306
    Stream size : 9.86 KiB (0%)
    Title : Norwegian [Full]
    Language : Norwegian
    Default : No
    Forced : No

    Text #16
    ID : 18
    Format : UTF-8
    Codec ID : S_TEXT/UTF8
    Codec ID/Info : UTF-8 Plain Text
    Duration : 25 min 24 s
    Bit rate : 84 b/s
    Count of elements : 301
    Stream size : 15.7 KiB (0%)
    Title : Greek [Full]
    Language : Greek
    Default : No
    Forced : No

    Text #17
    ID : 19
    Format : UTF-8
    Codec ID : S_TEXT/UTF8
    Codec ID/Info : UTF-8 Plain Text
    Duration : 25 min 24 s
    Bit rate : 87 b/s
    Count of elements : 306
    Stream size : 16.4 KiB (0%)
    Title : Hebrew [Full]
    Language : Hebrew
    Default : No
    Forced : No

    Text #18
    ID : 20
    Format : UTF-8
    Codec ID : S_TEXT/UTF8
    Codec ID/Info : UTF-8 Plain Text
    Duration : 25 min 24 s
    Bit rate : 97 b/s
    Count of elements : 307
    Stream size : 18.2 KiB (0%)
    Title : Arabic [Full]
    Language : Arabic
    Default : No
    Forced : No

    Text #19
    ID : 21
    Format : UTF-8
    Codec ID : S_TEXT/UTF8
    Codec ID/Info : UTF-8 Plain Text
    Duration : 25 min 24 s
    Bit rate : 50 b/s
    Count of elements : 297
    Stream size : 9.31 KiB (0%)
    Title : Romanian [Full]
    Language : Romanian
    Default : No
    Forced : No

    Text #20
    ID : 22
    Format : UTF-8
    Codec ID : S_TEXT/UTF8
    Codec ID/Info : UTF-8 Plain Text
    Duration : 25 min 22 s
    Bit rate : 44 b/s
    Count of elements : 320
    Stream size : 8.31 KiB (0%)
    Title : Indonesian [Full]
    Language : Indonesian
    Default : No
    Forced : No

    Text #21
    ID : 23
    Format : UTF-8
    Codec ID : S_TEXT/UTF8
    Codec ID/Info : UTF-8 Plain Text
    Duration : 25 min 24 s
    Bit rate : 146 b/s
    Count of elements : 307
    Stream size : 27.3 KiB (0%)
    Title : Thai [Full]
    Language : Thai
    Default : No
    Forced : No

    Text #22
    ID : 24
    Format : UTF-8
    Codec ID : S_TEXT/UTF8
    Codec ID/Info : UTF-8 Plain Text
    Duration : 25 min 24 s
    Bit rate : 68 b/s
    Count of elements : 307
    Stream size : 12.8 KiB (0%)
    Title : Korean [Full]
    Language : Korean
    Default : No
    Forced : No

    Text #23
    ID : 25
    Format : UTF-8
    Codec ID : S_TEXT/UTF8
    Codec ID/Info : UTF-8 Plain Text
    Duration : 25 min 24 s
    Bit rate : 46 b/s
    Count of elements : 307
    Stream size : 8.60 KiB (0%)
    Title : Chinese (Simplified) [Full]
    Language : Chinese
    Default : No
    Forced : No

    Text #24
    ID : 26
    Format : UTF-8
    Codec ID : S_TEXT/UTF8
    Codec ID/Info : UTF-8 Plain Text
    Duration : 25 min 24 s
    Bit rate : 54 b/s
    Count of elements : 297
    Stream size : 10.2 KiB (0%)
    Title : Chinese (Traditional) [Full]
    Language : Chinese
    Default : No
    Forced : No

    Text #25
    ID : 27
    Format : UTF-8
    Codec ID : S_TEXT/UTF8
    Codec ID/Info : UTF-8 Plain Text
    Duration : 25 min 24 s
    Bit rate : 58 b/s
    Count of elements : 300
    Stream size : 10.9 KiB (0%)
    Title : Japanese [Full]
    Language : Japanese
    Default : No
    Forced : No




Code:
https://www.keeplinks.co/p27/5ba23e999bc7f

Code:
https://www.keeplinks.co/p27/5ba23e999bc7f

Code:
https://www.keeplinks.co/p27/5ba23e999bc7f