Code:
http://www.imdb.com/title/tt7016936/

Code:
Plot:
A security operative hunts for an assassin. Based on the Villanelle novellas by Luke Jennings.

Video
ID : 1
Format : AVC
Format/Info : Advanced Video Codec
Format profile : High@L4
Format settings : CABAC / 4 Ref Frames
Format settings, CABAC : Yes
Format settings, RefFrames : 4 frames
Codec ID : V_MPEG4/ISO/AVC
Duration : 43 min 53 s
Bit rate mode : Variable
Bit rate : 6 458 kb/s
Maximum bit rate : 15.0 Mb/s
Width : 1 920 pixels
Height : 1 080 pixels
Display aspect ratio : 16:9
Frame rate mode : Constant
Frame rate : 23.976 (24000/1001) FPS
Color space : YUV
Chroma subsampling : 4:2:0
Bit depth : 8 bits
Scan type : Progressive
Bits/(Pixel*Frame) : 0.130
Stream size : 1.98 GiB (91%)
Language : English
Default : Yes
Forced : No
Color range : Limited
Color primaries : BT.709
Transfer characteristics : BT.709
Matrix coefficients : BT.709

Audio
ID : 2
Format : E-AC-3
Format/Info : Enhanced Audio Coding 3
Codec ID : A_EAC3
Duration : 43 min 53 s
Bit rate mode : Constant
Bit rate : 640 kb/s
Channel(s) : 6 channels
Channel positions : Front: L C R, Side: L R, LFE
Sampling rate : 48.0 kHz
Frame rate : 187.500 FPS (256 SPF)
Compression mode : Lossy
Stream size : 201 MiB (9%)
Language : English
Service kind : Complete Main
Default : Yes
Forced : No

Text
ID : 3
Format : UTF-8
Codec ID : S_TEXT/UTF8
Codec ID/Info : UTF-8 Plain Text
Duration : 43 min 20 s
Bit rate : 57 b/s
Count of elements : 626
Stream size : 18.3 KiB (0%)
Language : English
Default : No
Forced : No









Code:
Premium Links
https://www.keeplinks.co/p27/5b9e8323348aa

1GB Links
https://www.keeplinks.co/p27/5b9e83065b57f

Code:
Premium Links
https://www.keeplinks.co/p27/5b9e8323348aa

1GB Links
https://www.keeplinks.co/p27/5b9e83065b57f

Code:
Premium Links
https://www.keeplinks.co/p27/5b9e8323348aa

1GB Links
https://www.keeplinks.co/p27/5b9e83065b57f